[AVI 1.05G] [RCT-288] 巨乳戦隊チチレンジャーVS魔乳クイーンハマリオの逆襲

 

発売日:     2011/03/05
収録時間:     120分
出演者:     仁科百華 春咲あずみ 木下若菜 浜崎りお(森下えりか、篠原絵梨香)
監督:     テンプルすわ
シリーズ:     —-
メーカー:     ROCKET
レーベル:     ROCKET
ジャンル:     女戦士 巨乳 レイプ レズ デジモ
品番:     1rct288

 

人気巨乳女優:仁科百華・春咲あずみ・木下若菜が戦隊ヒロインに変身!妖艶なボンテージクイーンに扮した元祖美巨乳:浜崎りお率いる悪の組織に立ち向かう!捕らえられたチチレンジャーは必死に抗うも巨乳を揉みしだき犯される…同時イラマ、肉棒陵辱、大量ザーメンの洗礼!豪華巨乳女優競演の淫乱レズ、 SEXバトル必見!

 

 

General
      Complete name : RCT288.avi
      Format : AVI
      Format/Info : Audio Video Interleave
      Format profile : OpenDML
      File size : 1.05 GiB
      Duration : 4h 44mn
      Overall bit rate : 530 Kbps
      Writing application : Lavf52.84.0
   Video #0
      ID : 0
      Format : MPEG-4 Visual
      Codec ID : FMP4
      Duration : 4h 44mn
      Bit rate : 438 Kbps
      Width : 640 pixels
      Height : 480 pixels
      Display aspect ratio : 4:3
      Frame rate : 29.970 fps
      Resolution : 24 bits
      Bits/(Pixel*Frame) : 0.048
      Stream size : 892 MiB (83%)
   Audio #1
      ID : 1
      Format : MPEG Audio
      Format version : Version 1
      Format profile : Layer 3
      Codec ID : 55
      Codec ID/Hint : MP3
      Duration : 2h 5mn
      Bit rate mode : Constant
      Bit rate : 192 Kbps
      Channel(s) : 2 channels
      Sampling rate : 44.1 KHz
      Resolution : 16 bits
      Video delay : 511ms
      Stream size : 172 MiB (16%)
      Alignment : Aligned on interleaves
      Interleave, duration : 26 ms (0.78 video frame)
      Interleave, preload duration : 52 ms
      Writing library : LAME3.92

 


Download:

http://linkto.im//File.part1.rar

http://linkto.im//File.part2.rar

http://linkto.im//File.part3.rar

http://linkto.im//File.part4.rar

http://linkto.im//File.part5.rar

Related Posts Plugin for WordPress, Blogger...

Incoming search terms:



, , , , , , , ,

Leave a Reply

Your email address will not be published.

You may use these HTML tags and attributes: <a href="" title=""> <abbr title=""> <acronym title=""> <b> <blockquote cite=""> <cite> <code> <del datetime=""> <em> <i> <q cite=""> <strike> <strong>

This entry was posted on March 23, 2011 and is filed under ROCKET. You can follow any responses to this entry through the RSS 2.0 feed. You can leave a response, or trackback from your own site.