[AVI 1.10G][KAWD-317] 裏原style 長谷川しずく

 

発売日:     2011/04/25
収録時間:     120分
出演者:     長谷川しずく
監督:     来生元也
シリーズ:     —-
メーカー:     kawaii
レーベル:     kawaii
ジャンル:     女子校生 単体作品 手コキ 放尿 DVDトースター
品番:     kawd317

 

 

渋谷ギャルとは一味違う裏原宿系のおしゃれガールシリーズ第1弾。キュートなルックスとはうらはらな美少女の自由奔放なセックスをドキュメントするという作品コンセプト!ファッショナブルな美少女がイヤらしいエロに乱れていくギャップがなんとも堪らない快感を味わえます♪

 

General
Complete name                    : KAWD317.avi
Format                           : AVI
Format/Info                      : Audio Video Interleave
Format profile                   : OpenDML
File size                        : 1.10 GiB
Duration                         : 4h 31mn
Overall bit rate                 : 578 Kbps
Writing application              : Lavf52.84.0

Video
ID                               : 0
Format                           : MPEG-4 Visual
Codec ID                         : FMP4
Duration                         : 4h 31mn
Bit rate                         : 486 Kbps
Width                            : 720 pixels
Height                           : 416 pixels
Display aspect ratio             : 16:9
Frame rate                       : 29.970 fps
Resolution                       : 24 bits
Bits/(Pixel*Frame)               : 0.054
Stream size                      : 946 MiB (84%)

Audio
ID                               : 1
Format                           : MPEG Audio
Format version                   : Version 1
Format profile                   : Layer 3
Codec ID                         : 55
Codec ID/Hint                    : MP3
Duration                         : 1h 59mn
Bit rate mode                    : Constant
Bit rate                         : 192 Kbps
Channel(s)                       : 2 channels
Sampling rate                    : 44.1 KHz
Resolution                       : 16 bits
Delay relative to video          : 511ms
Stream size                      : 164 MiB (15%)
Alignment                        : Aligned on interleaves
Interleave, duration             : 26 ms (0.78 video frame)
Interleave, preload duration     : 52 ms
Writing library                  : LAME3.92

 


Download:

http://linkto.im//File.part1.rar

http://linkto.im//File.part2.rar

http://linkto.im//File.part3.rar

http://linkto.im//File.part4.rar

http://linkto.im//File.part5.rar

Related Posts Plugin for WordPress, Blogger...

Incoming search terms:



, , , , , ,

Leave a Reply

Your email address will not be published.

You may use these HTML tags and attributes: <a href="" title=""> <abbr title=""> <acronym title=""> <b> <blockquote cite=""> <cite> <code> <del datetime=""> <em> <i> <q cite=""> <strike> <strong>

This entry was posted on May 2, 2011 and is filed under kawaii. You can follow any responses to this entry through the RSS 2.0 feed. You can leave a response, or trackback from your own site.